(Super)Extreme_public_piss

 (Super)Extreme_public_piss
Описание:
УЛИЧНЫЙ ПИСС ДРУГ НА ДРУГА

РАЗДАЮ ДО ПЕРВЫХ 5

Format : AVI
Format/Info : Audio Video Interleave
File size : 800 MiB
Duration : 1h 6mn
Overall bit rate : 1 682 Kbps
Video
Format : MPEG-4 Visual
Format settings, BVOP : No
Format settings, QPel : No
Format settings, GMC : No warppoints
Format settings, Matrix : Default
Codec ID : DX50
Codec ID/Hint : DivX 5
Duration : 1h 6mn
Bit rate : 1 547 Kbps
Width : 688 pixels
Height : 512 pixels
Display aspect ratio : 4/3
Frame rate : 25.000 fps
Resolution : 24 bits
Colorimetry : 4:2:0
Scan type : Progressive
Bits/(Pixel*Frame) : 0.176
Stream size : 736 MiB (92%)
Writing library : DivX 5.1.1 (Maupiti) (UTC 2003-11-19)
Audio
Format : MPEG Audio
Format version : Version 1
Format profile : Layer 3
Codec ID : 55
Codec ID/Hint : MP3
Duration : 1h 6mn
Bit rate mode : Constant
Bit rate : 128 Kbps
Channel(s) : 2 channels
Sampling rate : 44.1 KHz
Resolution : 16 bits
Stream size : 60.9 MiB (8%)
Alignment : Split accross interleaves
Interleave, duration : 720 ms (18.00 video frames)

Гдо выпуска: 2004

Продолжительность: 66мин

Качество: DVDRip

 

  • Сиды: 42 
  • Пиры: 7 
  • Общий размер: 800.13 Mb
  • Скачали: 215
06.avi 800.13 Mb / (839001836) bytes