Transsexual Debutantes #5 / Транссексуалы Дебютанты #5 (2003) DVDRip

Жанр: Трансы
 Transsexual Debutantes #5 / Транссексуалы Дебютанты #5 (2003) DVDRip
Описание:
Год производства: 2003 г.
Страна: США
Жанр: Transsex, SheMale
Продолжительность:
Язык: Английский
Студия: Future Works
В ролях: Danielle, Paula, Fernanda
Качество видео: DVDRip
Формат видео: MP4
Видео кодек: H.264/AVC
Аудио кодек: AAC
Video: MPEG4 Video (H264) 480x320 29.97fps [Video]
Audio: AAC 44100Hz stereo 1411kbps [Audio]
Format : MPEG-4
Format profile : Base Media
Codec ID : isom
File size : 753 MiB
Duration : 1h 18mn
Overall bit rate : 1 343 Kbps
Encoded date : UTC 2010-09-21 21:01:50
Tagged date : UTC 2010-09-21 21:01:50
Video
ID : 2
Format : AVC
Format/Info : Advanced Video Codec
Format profile : Baseline@L3.0
Format settings, CABAC : No
Format settings, ReFrames : 1 frame
Muxing mode : Container profile=Baseline@1.3
Codec ID : avc1
Codec ID/Info : Advanced Video Coding
Duration : 1h 18mn
Bit rate mode : Variable
Bit rate : 1 242 Kbps
Width : 480 pixels
Height : 320 pixels
Display aspect ratio : 3:2
Frame rate mode : Constant
Frame rate : 29.970 fps
Original frame rate : 29.000 fps
Color space : YUV
Chroma subsampling : 4:2:0
Bit depth : 8 bits
Scan type : Progressive
Bits/(Pixel*Frame) : 0.270
Stream size : 696 MiB (92%)
Writing library : FђдPъаыЮ°Ґґѕ / FTчЮ„яЮp@
Language : English
Audio
ID : 1
Format : AAC
Format/Info : Advanced Audio Codec
Format version : Version 4
Format profile : LC
Format settings, SBR : No
Codec ID : 40
Duration : 1h 18mn
Bit rate mode : Constant
Bit rate : 96.0 Kbps
Channel(s) : 2 channels
Channel positions : Front: L R
Sampling rate : 44.1 KHz
Stream size : 53.8 MiB (7%)

Гдо выпуска: 2003

Продолжительность: 70мин

Качество: DVDRip

 

  • Сиды: 177 
  • Пиры: 25 
  • Общий размер: 753.14 Mb
  • Скачали: 165
Transsexual Debutantes #5.mp4 753.14 Mb / (789726241) bytes