Tasia_GooGirls (2008) DVDRip

Жанр: Разное
 Tasia_GooGirls (2008) DVDRip
Описание:
Молоденькую лилипутку пронят

Format : AVI
Format/Info : Audio Video Interleave
File size : 225 MiB
Duration : 24mn 38s
Overall bit rate : 1 276 Kbps
Writing library : VirtualDub build 0/release
Video
Format : MPEG-4 Visual
Format settings, BVOP : No
Format settings, QPel : No
Format settings, GMC : No warppoints
Format settings, Matrix : Default
Codec ID : XVID
Codec ID/Hint : XviD
Duration : 24mn 38s
Bit rate : 1 137 Kbps
Width : 464 pixels
Height : 336 pixels
Display aspect ratio : 1.381
Frame rate : 29.970 fps
Resolution : 24 bits
Colorimetry : 4:2:0
Scan type : Progressive
Bits/(Pixel*Frame) : 0.243
Stream size : 200 MiB (89%)
Audio
Format : MPEG Audio
Format version : Version 1
Format profile : Layer 3
Codec ID : 55
Codec ID/Hint : MP3
Duration : 24mn 38s
Bit rate mode : Constant
Bit rate : 128 Kbps
Channel(s) : 2 channels
Sampling rate : 44.1 KHz
Resolution : 16 bits
Stream size : 22.5 MiB (10%)
Alignment : Split accross interleaves
Interleave, duration : 33 ms (1.00 video frame)
Interleave, preload duration : 465 ms

Гдо выпуска: 2008

Продолжительность: 24мин

Качество: DVDRip

 

  • Сиды: 175 
  • Пиры: 22 
  • Общий размер: 224.96 Mb
  • Скачали: 154
Tasia_GooGirls.avi 224.96 Mb / (235888640) bytes