Sophie Moone & Sandy - Leg Affair (21Sextury.com) (2006) CamRip

Жанр: Лесбиянки
 Sophie Moone & Sandy - Leg Affair (21Sextury.com) (2006) CamRip
Описание:
Video:
Format: S-Mpeg 4 v3
Codec ID: MP43
Codec ID/Info: Microsoft MPEG-4 V3
Duration : 22mn 51s
Bit rate: 1 040 Kbps
Width: 400 pixels
Height: 300 pixels
Display aspect ratio: 4:3
Frame rate: 25.000 fps
Resolution: 24 bits
Bits/(Pixel*Frame): 0.347
Stream size: 170 MiB (96%)

Audio:
Format: MPEG Audio
Format version: Version 2
Format profile: Layer 3
Codec ID: 55
Codec ID/Hint: MP3
Duration: 22mn 51s
Bit rate mode: Constant
Bit rate: 32.0 Kbps
Channel(s): 1 channel
Sampling rate: 24.0 KHz
Resolution: 16 bits
Stream size: 5.23 MiB (3%)
Alignment: Split accross interleaves
Interleave, duration: 40 ms (1.00 video frame)
Interleave, preload duration: 500 ms



Гдо выпуска: 2006

Продолжительность: 22мин

Качество: CamRip

 

  • Сиды: 179 
  • Пиры: 49 
  • Общий размер: 176.86 Mb
  • Скачали: 169
v1054-299_Leg affair.avi 176.86 Mb / (185450496) bytes