Everything Butt - Teachers Anal Pet (2010) SATRip

Жанр: Фистинг
 Everything Butt - Teachers Anal Pet (2010) SATRip
Описание:
Teachers Anal PetEverything Butt - Teachers Anal Pet.wmv
Format : Windows Media
File size : 934 MiB
Duration : 1h 20mn
Overall bit rate mode : Variable
Overall bit rate : 1 622 Kbps
Maximum Overall bit rate : 7 158 Kbps
Encoded date : UTC 2010-05-24 20:16:38.862
Rating : xxx

Video
ID : 2
Format : VC-1
Format profile : MP@HL
Codec ID : WMV3
Codec ID/Info : Windows Media Video 9
Codec ID/Hint : WMV3
Description of the codec : Windows Media Video 9 - Professional
Duration : 1h 20mn
Bit rate mode : Variable
Bit rate : 1 500 Kbps
Width : 1 280 pixels
Height : 720 pixels
Display aspect ratio : 16:9
Frame rate : 29.970 fps
Bit depth : 8 bits
Scan type : Progressive
Bits/(Pixel*Frame) : 0.054
Stream size : 863 MiB (92%)

Audio
ID : 1
Format : WMA
Format version : Version 2
Codec ID : 161
Codec ID/Info : Windows Media Audio
Description of the codec : Windows Media Audio 9.1 - 128 kbps, 44 kHz, stereo 2-pass CBR
Duration : 1h 20mn
Bit rate mode : Constant
Bit rate : 128 Kbps
Channel(s) : 2 channels
Sampling rate : 44.1 KHz
Bit depth : 16 bits
Stream size : 73.7 MiB (8%)



Гдо выпуска: 2010

Продолжительность: 80мин

Качество: SATRip

 

  • Сиды: 92 
  • Пиры: 43 
  • Общий размер: 933.58 Mb
  • Скачали: 654
Everything Butt - Teachers Anal Pet/Everything Butt - Teachers Anal Pet.wmv 933.58 Mb / (978933082) bytes