Beautiful Stranger. / Прекрасная Незнакомка. (Kimberly Kane. / Vivid.) [ Feature, Female Producers/Directors. DVDRip, WMV.] *Release Date: September 13, 2010* (2010) DVDRip

 Beautiful Stranger. / Прекрасная Незнакомка. (Kimberly Kane. / Vivid.) [ Feature, Female Producers/Directors. DVDRip, WMV.] *Release Date: September 13, 2010* (2010) DVDRip
Описание:
Beautiful Stranger.
Прекрасная Незнакомка.


Релиз Группы:-NoName.

Год производства: 2010г.
Страна: USA.
Жанр: Feature, Female Producers/Directors.
Язык: Английский.

Режисёр: Kimberly Kane.
Студия: Vivid.

Продолжительность: 2 hrs. 8 mins.
Release Date: September 13, 2010

В ролях: Kristina Rose, Anthony Rosano, Bobbi Starr, Kimberly Kane, Aiden Starr, Alec Knight, Savanna Samson, Denis Marti, Angelica Raven, Mr Pete.

Описание: Sometimes the beauty of a stranger can elicit the depravity of a soul. In perhaps her darkest piece yet, director and AVN Best Actress winner Kimberly Kane portrays a voyeuristic loner lost in a feverish obsession with lady of the night Savanna Samson...who is unaware of her captivated admirer.

Isolation and lust control Kimberly's mind as she falls deeper and deeper into the beautiful and sometimes uncontrollable world of her innermost thoughts. Enter this world...and witness the perversity that transpires when Beautiful Strangers meet.

Доп. информация: http://www.gamelink.com/display_product.jhtml?id=349120
http://www.adultdvdempire.com/1548671/beautiful-stranger-porn-movies.html
http://www.cduniverse.com/productinfo.asp?pid=8283515&style=ice


Качество: DVDRip.
Формат: Windows Media Player 11.
Видео кодек: WVC1.
Аудио кодек: Windows Media Audio
WVC1, 720x480, (4:3), 27.00fps, 1600kbps [Raw Video 1]
Windows Media Audio, 48000Hz, stereo, 64kbps [Raw Audio 0]
__________________

MediaInfo:

Complete name : T:PLDVD-ripBeautiful.Stranger.XXX.DVDRiP.WMVbeautiful.stranger.wmv
Format : Windows Media
File size : 127 MiB
Duration : 2h 8mn
Overall bit rate mode : Constant
Overall bit rate : 138 Kbps
Maximum Overall bit rate : 1 681 Kbps
Movie name : Beautiful Stranger
Performer : Adult DVD Empire
Encoded date : UTC 2010-09-14 18:00:55.625
Copyright : Copyright (c) Vivid Premium

Video
ID : 2
Format : VC-1
Format profile : AP@L1
Codec ID : WVC1
Codec ID/Hint : Microsoft
Description of the codec : Windows Media Video 9 Advanced Profile
Duration : 2h 8mn
Bit rate mode : Constant
Bit rate : 1 600 Kbps
Width : 720 pixels
Height : 480 pixels
Display aspect ratio : 3:2
Frame rate : 27.000 fps
Standard : NTSC
Chroma subsampling : 4:2:0
Bit depth : 8 bits
Scan type : Progressive
Bits/(Pixel*Frame) : 0.171
Stream size : 1.44 GiB

Audio
ID : 1
Format : WMA
Format version : Version 2
Codec ID : 161
Codec ID/Info : Windows Media Audio
Description of the codec : Windows Media Audio 9.2 - 64 kbps, 48 kHz, stereo (A/V) 1-pass CBR
Duration : 2h 8mn
Bit rate mode : Constant
Bit rate : 64.0 Kbps
Channel(s) : 2 channels
Sampling rate : 48.0 KHz
Bit depth : 16 bits
Stream size : 58.9 MiB (46%)
_______________

Размер: 1.5 GB

************************************

ПРИЯТНОГО ПРОСМОТРА ! НЕ ЗАБЫВАЙТЕ О "СПАСИБО" !

Гдо выпуска: 2010

Продолжительность: 128мин

Качество: DVDRip

 

  • Сиды: 144 
  • Пиры: 25 
  • Общий размер: 1.5 Gb
  • Скачали: 102
Beautiful.Stranger.XXX.DVDRiP.WMV/beautiful.stranger.nfo 1.06 Kb / (1084) bytes
Beautiful.Stranger.XXX.DVDRiP.WMV/beautiful.stranger.wmv 1.49 Gb / (1605091754) bytes
Beautiful.Stranger.XXX.DVDRiP.WMV/beautiful.stranger.wmv.png 4.19 Mb / (4392839) bytes