СУПЕР ТРАХ 9!!! Алетточка отмасажирована! :) MassageGirls18 - Aletta Ocean (new) (2010) SATRip

 СУПЕР ТРАХ 9!!! Алетточка отмасажирована! :) MassageGirls18 - Aletta Ocean (new) (2010) SATRip
Описание:
Алетточка поситила масажиста :)))


Format : Windows Media
File size : 483 MiB
Duration : 21mn 23s
Overall bit rate mode : Constant
Overall bit rate : 3 156 Kbps
Maximum Overall bit rate : 3 173 Kbps
Encoded date : UTC 2009-06-05 00:16:16.782
SfOriginalFPS : 300000
Video #2
ID : 2
Format : VC-1
Format profile : MP@HL
Codec ID : WMV3
Codec ID/Info : Windows Media Video 9
Codec ID/Hint : WMV3
Description of the codec : Windows Media Video 9 - Professional
Duration : 21mn 23s
Bit rate mode : Constant
Bit rate : 2 954 Kbps
Width : 1 000 pixels
Height : 564 pixels
Display aspect ratio : 16:9
Frame rate : 30.000 fps
Resolution : 24 bits
Scan type : Progressive
Bits/(Pixel*Frame) : 0.175
Stream size : 452 MiB (94%)
Language : English (US)
Audio #1
ID : 1
Format : WMA2
Format profile : L3
Codec ID : 161
Codec ID/Info : Windows Media Audio 2
Description of the codec : Windows Media Audio 9.2 - 192 kbps, 48 kHz, stereo (A/V) 1-pass CBR
Duration : 21mn 23s
Bit rate mode : Constant
Bit rate : 192 Kbps
Channel(s) : 2 channels
Sampling rate : 48.0 KHz
Resolution : 16 bits
Stream size : 29.4 MiB (6%)
Language : English (US)

ПРИЯТНОГО ПРОСМОТРА!!!

Гдо выпуска: 2010

Продолжительность: 21мин

Качество: SATRip

 

  • Сиды: 174 
  • Пиры: 28 
  • Общий размер: 482.79 Mb
  • Скачали: 463
95 MassageGirls18 - Aletta Ocean/MassageGirls18 - Aletta Ocean (new).wmv 482.79 Mb / (506245147) bytes