Прилюдно и многократно отымели: связали, наказали, насадили и насладили

Жанр: BDSM
 Прилюдно и многократно отымели: связали, наказали, насадили и насладили
Описание:
Вот до чего доводит ограничение пить и курить в общественном месте - начинаются извращщения!!!!!!!

Кому интересна эта порнуха - читайте:

Complete name : E:OG12058-PrincessDonnaDolore JamesDeen JynxMazePD_12058_PrincessDonnaDolore_JamesDeen_JynxMaze.wmv
Format : Windows Media
File size : 778 MiB
Duration : 1h 4mn
Overall bit rate mode : Variable
Overall bit rate : 1 675 Kbps
Maximum Overall bit rate : 7 158 Kbps
Encoded date : UTC 2011-03-25 13:44:43.493
Rating : xxx

Video
ID : 2
Format : VC-1
Format profile : MP@HL
Codec ID : WMV3
Codec ID/Info : Windows Media Video 9
Codec ID/Hint : WMV3
Description of the codec : Windows Media Video 9 - Professional
Duration : 1h 4mn
Bit rate mode : Variable
Bit rate : 1 500 Kbps
Width : 1 280 pixels
Height : 720 pixels
Display aspect ratio : 16:9
Frame rate : 29.970 fps
Resolution : 24 bits
Scan type : Progressive
Bits/(Pixel*Frame) : 0.054
Stream size : 696 MiB (89%)

Audio
ID : 1
Format : WMA
Format version : Version 2
Codec ID : 161
Codec ID/Info : Windows Media Audio
Description of the codec : Windows Media Audio 9.1 - 128 kbps, 44 kHz, stereo 2-pass CBR
Duration : 1h 4mn
Bit rate mode : Constant
Bit rate : 128 Kbps
Channel(s) : 2 channels
Sampling rate : 44.1 KHz
Resolution : 16 bits
Stream size : 59.5 MiB (8%)



Гдо выпуска: 2011

Продолжительность: 65мин

Качество: Other

 

  • Сиды: 31 
  • Пиры: 45 
  • Общий размер: 778.14 Mb
  • Скачали: 1666
PD_12058_PrincessDonnaDolore_JamesDeen_JynxMaze.wmv 778.14 Mb / (815934112) bytes