ZFX Dantist

Жанр: BDSM
 ZFX Dantist
Описание:
( беременным детям до 16 лет с неуравновешенной психикой в пяном виде за рулём крутящыхся механизмов не смотреть


тех данные


General
Complete name : E:ogZfxThe Dentist.rm
Format : RealMedia
File size : 144 MiB
Duration : 1h 21mn
Overall bit rate : 235 Kbps
Performer : ZFX Productions Inc.
Copyright : Copyright 1991-2004 ZFX Productions All Rights Reserved

Video
ID : 1
Format : RealVideo 4
Codec ID : RV40
Codec ID/Info : Based on AVC (H.264), Real Player 9
Duration : 1h 21mn
Bit rate : 219 Kbps
Width : 320 pixels
Height : 240 pixels
Display aspect ratio : 4:3
Frame rate : 24.000 fps
Resolution : 12 bits
Bits/(Pixel*Frame) : 0.119
Stream size : 127 MiB (89%)

Audio
ID : 0
Format : Cooker
Codec ID : cook
Codec ID/Info : Based on G.722.1, Real Player 6
Duration : 1h 21mn
Bit rate : 16.2 Kbps
Channel(s) : 1 channel
Sampling rate : 22.05 KHz
Resolution : 16 bits
Stream size : 9.44 MiB (7%)



Гдо выпуска: 2005

Продолжительность: 82мин

Качество: CamRip

 

  • Сиды: 197 
  • Пиры: 24 
  • Общий размер: 144.07 Mb
  • Скачали: 1189
The Dentist.rm 144.07 Mb / (151065207) bytes