Научи свою Телку правильно Дрочить!!!Я знаю, я видел эту девушку где-то . .Brandi B .

Жанр: BDSM
 Научи свою Телку правильно Дрочить!!!Я знаю, я видел эту девушку где-то . .Brandi B .
Описание:
Я знаю, я видел эту девушку где-то ... - Бренди медленно раздевается, как она смотрит на беспомощных рабов под ногами. Раб с завязанными глазами, запястья связаны за спиной, и ноги разводятся с распорка. Она душит рабов лицо киски и мудак Она начинается с растирания и сжимая ОГРОМНЫЙ спермы заполнены яички. Тогда ручонками изучить каждый сантиметр члена BIG. мастурбирует Бренди является выдающейся, лучшее, что я видел в течение длительного времени. Она особенно любила ОГРОМНЫЙ лысый. Она прослеживается во всем его и прижимаю ее сцепление на валу чтобы голова выпуклость еще больше. постоянная гладил Бренди вызвало ПЕТУХ освободить NICE густой сливочный нагрузка спермы. Ее мимика бесценны. Красивая брюнетка продолжали доить провел длинный пенис после оргазма.
Format : Windows Media
File size : 169 MiB
Duration : 14mn 40s
Overall bit rate mode : Variable
Overall bit rate : 1 608 Kbps
Maximum Overall bit rate : 2 558 Kbps
Encoded date : UTC 2010-07-04 19:05:13.765

Video
ID : 2
Format : VC-1
Format profile : MP@ML
Codec ID : WMV3
Codec ID/Info : Windows Media Video 9
Codec ID/Hint : WMV3
Description of the codec : Windows Media Video 9 - Professional
Duration : 14mn 40s
Bit rate mode : Variable
Bit rate : 1 500 Kbps
Width : 720 pixels
Height : 480 pixels
Display aspect ratio : 3:2
Frame rate : 29.970 fps
Standard : NTSC
Bit depth : 8 bits
Scan type : Progressive
Bits/(Pixel*Frame) : 0.145
Stream size : 158 MiB (93%)
NumberOfFrames : 26389

Audio
ID : 1
Format : WMA
Format version : Version 2
Codec ID : 161
Codec ID/Info : Windows Media Audio
Description of the codec : Windows Media Audio 9.2 - 96 kbps, 48 kHz, stereo 2-pass VBR
Duration : 14mn 40s
Bit rate mode : Variable
Bit rate : 96.0 Kbps
Channel(s) : 2 channels
Sampling rate : 48.0 KHz
Bit depth : 16 bits
Stream size : 10.1 MiB (6%)



Гдо выпуска: 2010

Продолжительность: 14мин

Качество: SATRip

 

  • Сиды: 187 
  • Пиры: 6 
  • Общий размер: 168.91 Mb
  • Скачали: 1439
Brandi.Belle.-.HandDomination.wmv 168.91 Mb / (177111123) bytes