Заднепроходное толкание Софи Ди(Anal Pounding Sophie Dee)(.Kink.com/ Everythingbutt.com) (2010) SATRip

Жанр: BDSM
 Заднепроходное толкание Софи Ди(Anal Pounding Sophie Dee)(.Kink.com/ Everythingbutt.com) (2010) SATRip
Описание:
Невероятно сексуальная Софи Ди принимает в задницу трудно и глубоко от Джеймса Дина. После хвастается своим горячим телом, трахает себя анально, и ей удается получить кулак себе в задницу. Тогда ее задницу заполняет водой, и она выпрыскивает ее из ее очочка для удовольствия.
Format : Windows Media
File size : 791 MiB
Duration : 1h 6mn
Overall bit rate mode : Variable
Overall bit rate : 1 676 Kbps
Maximum Overall bit rate : 7 158 Kbps
Encoded date : UTC 2010-08-04 09:35:41.199
Rating : xxx

Video
ID : 2
Format : VC-1
Format profile : MP@HL
Codec ID : WMV3
Codec ID/Info : Windows Media Video 9
Codec ID/Hint : WMV3
Description of the codec : Windows Media Video 9 - Professional
Duration : 1h 6mn
Bit rate mode : Variable
Bit rate : 1 500 Kbps
Width : 1 280 pixels
Height : 720 pixels
Display aspect ratio : 16:9
Frame rate : 29.970 fps
Bit depth : 8 bits
Scan type : Progressive
Bits/(Pixel*Frame) : 0.054
Stream size : 708 MiB (90%)

Audio
ID : 1
Format : WMA
Format version : Version 2
Codec ID : 161
Codec ID/Info : Windows Media Audio
Description of the codec : Windows Media Audio 9.1 - 128 kbps, 44 kHz, stereo 2-pass CBR
Duration : 1h 6mn
Bit rate mode : Constant
Bit rate : 128 Kbps
Channel(s) : 2 channels
Sampling rate : 44.1 KHz
Bit depth : 16 bits
Stream size : 60.5 MiB (8%)



Гдо выпуска: 2010

Продолжительность: 66мин

Качество: SATRip

 

  • Сиды: 147 
  • Пиры: 17 
  • Общий размер: 791.3 Mb
  • Скачали: 965
Anal Pounding Sophie Dee.wmv 791.3 Mb / (829742378) bytes