Пересечение потоков 6 июля 2010 - Джейд Indica, г-н Пит и Шарлотта Вейл[Crossing the Streams Jul 6, 2010 - Jade Indica, Mr. Pete and Charlotte Vale]Everythingbutt.com.Kink.com]] (2010) SATRip

Жанр: BDSM
 Пересечение потоков 6 июля 2010 - Джейд Indica, г-н Пит и Шарлотта Вейл[Crossing the Streams Jul 6, 2010 - Jade Indica, Mr. Pete and Charlotte Vale]Everythingbutt.com.Kink.com]] (2010) SATRip
Описание:
Jade Indica and Charlotte Vale work each other over with spanking, ass licking, glass anal toys and anal strapons. Next, their inner slut really comes out in a wild anal sex threesome. Finally, repeated enemas are given to both girls as they play with butt plugs and expel on each other!
Джейд Indica и Шарлотта Вейл работать друг с другом через с порку, задницу лизать, стекло анальные и анальный strapons. Далее, их внутренней шлюха действительно происходит в диких анальный секс втроем. Наконец, повторил клизмы даются как девочек, так как они играют с прикладом вилки и высылать друг на друга!
Format : Windows Media
File size : 907 MiB
Duration : 1h 15mn
Overall bit rate mode : Variable
Overall bit rate : 1 675 Kbps
Maximum Overall bit rate : 7 158 Kbps
Encoded date : UTC 2010-06-26 16:07:44.534
Rating : xxx

Video
ID : 2
Format : VC-1
Format profile : MP@HL
Codec ID : WMV3
Codec ID/Info : Windows Media Video 9
Codec ID/Hint : WMV3
Description of the codec : Windows Media Video 9 - Professional
Duration : 1h 15mn
Bit rate mode : Variable
Bit rate : 1 500 Kbps
Width : 1 280 pixels
Height : 720 pixels
Display aspect ratio : 16:9
Frame rate : 29.970 fps
Bit depth : 8 bits
Scan type : Progressive
Bits/(Pixel*Frame) : 0.054
Stream size : 812 MiB (90%)

Audio
ID : 1
Format : WMA
Format version : Version 2
Codec ID : 161
Codec ID/Info : Windows Media Audio
Description of the codec : Windows Media Audio 9.1 - 128 kbps, 44 kHz, stereo 2-pass CBR
Duration : 1h 15mn
Bit rate mode : Constant
Bit rate : 128 Kbps
Channel(s) : 2 channels
Sampling rate : 44.1 KHz
Bit depth : 16 bits
Stream size : 69.3 MiB (8%)



Гдо выпуска: 2010

Продолжительность: 75мин

Качество: SATRip

 

  • Сиды: 200 
  • Пиры: 21 
  • Общий размер: 907.39 Mb
  • Скачали: 492
EverythingButt - 2010-07-06 - Jade Indica, Mr. Pete and Charlotte Vale (9493).wmv 907.39 Mb / (951470904) bytes