Беспредел 15 сцена 3(No Limits 15 Scene3) (2010) Other

 Беспредел 15 сцена 3(No Limits 15 Scene3) (2010) Other
Описание:
Format : Windows Media
File size : 290 MiB
Duration : 39mn 29s
Overall bit rate mode : Variable
Overall bit rate : 1 028 Kbps
Maximum Overall bit rate : 1 322 Kbps
Movie name : No Limits #15
Encoded date : UTC 2010-03-10 19:17:51.468

Video
ID : 2
Format : WMV2
Codec ID : WMV2
Codec ID/Info : Windows Media Video 8
Description of the codec : Windows Media Video V8
Duration : 39mn 29s
Bit rate mode : Variable
Bit rate : 887 Kbps
Width : 480 pixels
Height : 352 pixels
Display aspect ratio : 4:3
Frame rate : 29.970 fps
Resolution : 8 bits
Bits/(Pixel*Frame) : 0.175
Stream size : 251 MiB (86%)
Language : English (US)

Audio
ID : 1
Format : WMA
Format version : Version 2
Codec ID : 161
Codec ID/Info : Windows Media Audio
Description of the codec : Windows Media Audio 9.2 - 128 kbps, 48 kHz, stereo (A/V) 1-pass CBR
Duration : 39mn 29s
Bit rate mode : Constant
Bit rate : 128 Kbps
Channel(s) : 2 channels
Sampling rate : 48.0 KHz
Resolution : 16 bits
Stream size : 36.2 MiB (12%)
Language : English (US)


Гдо выпуска: 2010

Продолжительность: 39мин

Качество: Other

 

  • Сиды: 151 
  • Пиры: 22 
  • Общий размер: 290.33 Mb
  • Скачали: 457
No_Limits_15_Scene_3_b.wmv 290.33 Mb / (304432560) bytes