First Anal Quest – Marta(www.firstanalquest.com) (2010) HDTV

 First Anal Quest – Marta(www.firstanalquest.com) (2010) HDTV
Описание:
Типа пеРвый раз в шоколадный глаз.0
ЗЫ.КАНЕШНО В 121.
Format : Windows Media
File size : 854 MiB
Duration : 25mn 46s
Overall bit rate mode : Constant
Overall bit rate : 4 630 Kbps
Maximum Overall bit rate : 4 646 Kbps
Encoded date : UTC 2010-04-24 07:57:33.552
SfOriginalFPS : 299700

Video
ID : 2
Format : VC-1
Format profile : MP@HL
Codec ID : WMV3
Codec ID/Info : Windows Media Video 9
Codec ID/Hint : WMV3
Description of the codec : Windows Media Video 9 - Professional
Duration : 25mn 46s
Bit rate mode : Constant
Bit rate : 4 448 Kbps
Width : 1 280 pixels
Height : 720 pixels
Display aspect ratio : 16:9
Frame rate : 29.970 fps
Resolution : 8 bits
Scan type : Progressive
Bits/(Pixel*Frame) : 0.161
Stream size : 820 MiB (96%)
Language : Russian

Audio
ID : 1
Format : WMA
Format version : Version 2
Codec ID : 161
Codec ID/Info : Windows Media Audio
Description of the codec : Windows Media Audio 9.2 - 160 kbps, 44 kHz, stereo (A/V) 1-pass CBR
Duration : 25mn 46s
Bit rate mode : Constant
Bit rate : 160 Kbps
Channel(s) : 2 channels
Sampling rate : 44.1 KHz
Resolution : 16 bits
Stream size : 29.5 MiB (3%)
Language : Russian



Гдо выпуска: 2010

Продолжительность: 25мин

Качество: HDTV

 

  • Сиды: 137 
  • Пиры: 18 
  • Общий размер: 853.74 Mb
  • Скачали: 460
First Anal Quest – Marta.wmv 853.74 Mb / (895206719) bytes