Bree Olson (It's Huge 6) (2007) DVDRip

 Bree Olson (It's Huge 6) (2007) DVDRip
Описание:
Scene from "It's Huge 6".

Video:
Codec ID: XVID
Codec ID/Hint: XviD
Duration: 23mn 19s
Bit rate: 1 066 Kbps
Width: 512 pixels
Height: 288 pixels
Display aspect ratio: 16:9
Frame rate : 29.970 fps
Resolution: 24 bits
Colorimetry: 4:2:0
Scan type: Progressive
Bits/(Pixel*Frame): 0.241
Stream size: 178 MiB (90%)
Writing library: XviD 1.0.3 (UTC 2004-12-20)

Audio:
Format: MPEG Audio
Format version: Version 1
Format profile: Layer 3
Codec ID: 55
Codec ID/Hint : MP3
Duration : 23mn 19s
Bit rate mode: Variable
Bit rate: 105 Kbps
Channel(s): 2 channels
Sampling rate: 48.0 KHz
Resolution: 16 bits
Stream size: 17.9 MiB (9%)
Alignment: Aligned on interleaves
Interleave, duration: 24 ms (0.72 video frame)
Interleave, preload duration: 401 ms


Гдо выпуска: 2007

Продолжительность: 23мин

Качество: DVDRip

 

  • Сиды: 52 
  • Пиры: 15 
  • Общий размер: 197.94 Mb
  • Скачали: 195
Bree Olson_It's Huge 6.avi 197.94 Mb / (207558656) bytes