Злоупотребления властью Abuse of Power Aug 31, 2010 - James Deen, Mr. Pete and Phoenix Marie Everything Butt (2010) SATRip

 Злоупотребления властью  Abuse of Power   Aug 31, 2010 - James Deen, Mr. Pete and Phoenix Marie Everything Butt  (2010) SATRip
Описание:
Мэри Phoenix является извращенной врачихой, которая сосет хуй всех ее пациентов, не давая им прохода. Когда пациент идет к директору больницы жаловаться, и угрожает подать в суд, Phoenix может потерять работу ,или Она получает наказание, унижение, еблю в задницу и двойное проникновение!


[Видео-информация]
Видеокодек:WMV3
Вид на входе:YV12(12 bits)
Размер на входе:1280 x 720(1.78:1)
Вид на выходе:NV12(12 bits)
Размер на выходе:1280 x 720(1.78:1)
Частота кадров:29.97
BitRate: Unknown

[Аудио-информация]
Аудиокодек:Windows Media Audio V2(0x161)
Частота дискретизации:44100 ->44100 кадров / сек
Битрейт:16 ->16 bits / sample
Каналов:2 ->2 каналов
Bitrate: 128 kbps

Format : Windows Media
File size : 737 MiB
Duration : 1h 1mn
Overall bit rate mode : Variable
Overall bit rate : 1 675 Kbps
Maximum Overall bit rate : 7 158 Kbps
Encoded date : UTC 2010-08-26 23:47:45.255
Rating : xxx
Video #2
ID : 2
Format : VC-1
Format profile : MP@HL
Codec ID : WMV3
Codec ID/Info : Windows Media Video 9
Codec ID/Hint : WMV3
Description of the codec : Windows Media Video 9 - Professional
Duration : 1h 1mn
Bit rate mode : Variable
Bit rate : 1 500 Kbps
Width : 1 280 pixels
Height : 720 pixels
Display aspect ratio : 16:9
Frame rate : 29.970 fps
Resolution : 8 bits
Scan type : Progressive
Bits/(Pixel*Frame) : 0.054
Stream size : 659 MiB (90%)
Audio #1
ID : 1
Format : WMA
Format version : Version 2
Codec ID : 161
Codec ID/Info : Windows Media Audio
Description of the codec : Windows Media Audio 9.1 - 128 kbps, 44 kHz, stereo 2-pass CBR
Duration : 1h 1mn
Bit rate mode : Constant
Bit rate : 128 Kbps
Channel(s) : 2 channels
Sampling rate : 44.1 KHz
Resolution : 16 bits
Stream size : 56.3 MiB (8%)


Гдо выпуска: 2010

Продолжительность: 61мин

Качество: SATRip

 

  • Сиды: 62 
  • Пиры: 38 
  • Общий размер: 736.63 Mb
  • Скачали: 942
EverythingButt - 2010-08-31 - James Deen, Mr. Pete and Phoenix Marie (10056).wmv 736.63 Mb / (772410434) bytes