Прыщавая Шлюха Мэрайя Мэдисин[Mariah Madysinn in Big Tits Boss-Breast Side Story-Reality Kings] (2010) SATRip

 Прыщавая Шлюха Мэрайя Мэдисин[Mariah Madysinn in Big Tits Boss-Breast Side Story-Reality Kings] (2010) SATRip
Описание:
Чел не хотел подписывать контракт,но она показала пизду и понеслось.
Big Tits Boss-Breast Side Story-Reality Kings.wmv
Format : Windows Media
File size : 390 MiB
Duration : 34mn 19s
Overall bit rate : 1 588 Kbps
Maximum Overall bit rate : 1 567 Kbps
Encoded date : UTC 2010-07-24 11:17:04.000

Video
ID : 1
Format : VC-1
Format profile : MP
Codec ID : WMV3
Codec ID/Info : Windows Media Video 9
Codec ID/Hint : WMV3
Description of the codec : Windows Media Video 9 - 2-pass VBR
Duration : 34mn 19s
Bit rate : 1 500 Kbps
Width : 768 pixels
Height : 432 pixels
Display aspect ratio : 16:9
Frame rate : 29.970 fps
Bit depth : 8 bits
Scan type : Progressive
Bits/(Pixel*Frame) : 0.151
Stream size : 368 MiB (94%)

Audio
ID : 2
Format : WMA
Format version : Version 2
Codec ID : 161
Codec ID/Info : Windows Media Audio
Description of the codec : Windows Media Audio 9 - 48 kbps, 44 kHz, mono CBR
Duration : 34mn 19s
Bit rate : 48.0 Kbps
Channel(s) : 1 channel
Sampling rate : 44.1 KHz
Bit depth : 16 bits
Stream size : 11.8 MiB (3%)



Гдо выпуска: 2010

Продолжительность: 34мин

Качество: SATRip

 

  • Сиды: 187 
  • Пиры: 16 
  • Общий размер: 389.67 Mb
  • Скачали: 143
Mariah Madysinn in Big Tits Boss-Breast Side Story-Reality Kings.wmv 389.67 Mb / (408597238) bytes